paintball camo 59 Index du Forum
 
 
 
paintball camo 59 Index du ForumFAQRechercherS’enregistrerConnexion

Spartito Minuetto Mia Martini Pdf Free

 
Poster un nouveau sujet   Répondre au sujet    paintball camo 59 Index du Forum -> La communauté PBC59 -> Le club PBC59
Sujet précédent :: Sujet suivant  
Auteur Message
waspalau


Hors ligne

Inscrit le: 01 Avr 2016
Messages: 509
Localisation: Strossburi
Masculin
Point(s): 509
Moyenne de points: 1,00

MessagePosté le: Sam 17 Mar - 20:48 (2018)    Sujet du message: Spartito Minuetto Mia Martini Pdf Free Répondre en citant





Spartito Minuetto Mia Martini Pdf Free










minuetto martini
minuetto martini testo
minuetto martini tube
minuetto martini accordi
minuetto martini youtube
minuetto mia martini lyrics
mia martini minuetto lyrics english
minuetto mia martini spartito pianoforte pdf
minuetto mia martini accordi
minuetto mia martini con testo
minuetto mia martini lyrics english
minuetto mia martini testo
minuetto mia martini significato



Here is a list of my piano arrangements you can free download from the . Mia MARTINI Almeno tu nell'universo . UPDATES PIANO SHEET MUSIC- AGGIORNAMENTI SPARTITI .. Mia Martini - GLI UOMINI NON CAMBIANO + testo - Mia Martini - GLI UOMINI NON CAMBIANO. Mia Martini Midi: Almeno tu nell'universo, Donna sola, E la vita racconta, E non finisce mica il cielo, Inno, Minuetto, Piccolo uomo Remix, Spaccami il cuore, Al mondo. Mia Martini - GLI UOMINI NON CAMBIANO + testo - Mia Martini - GLI UOMINI NON CAMBIANO. Spatial ability tests free Spartito minuetto mia martini per .. ALONE AGAIN (NATURALLY) Gilbert OSullivan Bb Sheet music Pop-Rock. Free Sheet music with Guitar chords Download Trumpet, Soprano.. Fossati has several albums to date and has wrote songs and played with Italian musicians such as Fabrizio De Andr, Riccardo Tesi, Mia Martini, Ornella Vanoni, Francesco De Gregori and. Minuetto Pack Anemone mediafire links free download, download MINUETTO, Minuetto (Mia Martini), Minuetto[www xyTune com] - minuetto pack anemone mediafire files.. More resultsDownload almeno tu nell universo mia martini Free mp3 . video e ascolta gratis Mia Martini: Minuetto, . gratis in pdf; scaricare Mia Martini.. Sanremo 1992 - Mia Martini - Gli uomini non cambiano video, testo e accordi. Download MIDI Karaoke songs originally from Mia Martini. The songs are available on Song Service also as MP3 Karaoke and digital scores.. Mia Martini - Minuetto.wav Peak level 100.0 % Extraction speed 5.7 X Track quality 100.0 % Test CRC C0DAAE94 Copy CRC C0DAAE94 Accurately .. Created Date: 4/11/2012 11:50:55 AM. Aiuta a mantenere questo sito FREE! . Mia Martini - Almeno tu nell'universo - E non finisce mica il cielo - Minuetto - Piccolo uomo.. Download 9 free sheet music and scores:Mia Martini, Sheet music, scores . . Minuetto. Mondo Nuovo. Nanne. Ne . (PDF) Complete Score.. An pethanei mia agapi.pdf; . Free Download and enjoy! . How to Tell if a Piece of Sheet Music is in the Public Domain Greek Sheet Music F-P.. The Pianist's Library . Here is a list of Mercuzio's piano arrangements you can free download from the following links: . Mia MARTINI Almeno tu nell .. Scribd es red social de lectura y publicacin ms importante del mundo.. A minuet (; also spelled menuet), is a social dance of French origin for two people, usually in 34 time. The word was adapted from Italian minuetto and French menuet .. Try it free. Find out why Close. Partitura Minuetto Mia Martini Viola Espacio Honduras Msica. .. Chords for Mia Martini - Minuetto. Play along with guitar, ukulele, or piano with interactive chords and diagrams. Includes transpose, capo hints, changing speed and .. . spartito, Sanremo 1967. . Mia Martini Minuetto (vers. inedita) See More. by Mia Martini Channel di fabrimanca.. FRANK ZAPPA (album Absolutely free); DAVID BOWIE (vasta scelta). . La mia classifica non ha importanza, tanto non gliene frega niente a nessuno.. Minuetto Pack Anemone mediafire links free download, download MINUETTO, Minuetto (Mia Martini), Minuetto[www xyTune com] - minuetto pack anemone mediafire files.. (Italian Edition) by Chiara Cilli pdf free in the homestead museum Georgikon, . Minuetto - Mia Martini - +Testo - Il Fuoco della Passione. Download Play.. N - 421 - MP3 - Free Pianist. MP3 file (audio) . PDF typeset by editor Cellofan (2015/5/29) Editor Orfeo Mandozzi: Pub lisher. Info. Vienna: Orfeo Mandozzi 2015.. Listen to the mp3 of the available arrangements! . (Roberto Murolo & Mia Martini - classical guitar) . classical guitar arrangement) Angelitos Negros - (classical .. Mia Martini (left) with sister Loredana Bert She was born Domenica Bert in 1947 in Bagnara Calabra (province of Reggio Calabria, in southern Italy, the second among four daughters.. Spartito per piano della canzone "minuetto" di mia Martini? Per favore potete linkarmi (se cos si dice) lo spartito? O anche .. Mia Martini (Italian pronunciation: [mia martini]; born Domenica Bert [domenika berte]; 20 September 1947 12 May 1995) was an Italian singer.. Enjoy free access to your favorite songs and online radio stations. Enjoy free access to your favorite songs and online radio .. [Spartito - Sheet Music] Goblin - Profondo Rosso.pdf. . 267208618 Spartito Sheet Music Goblin Profondo Rosso PDF. . Minuetto - Mia Martini.. Print and download MINUETTO - Dario Baldan Bembo. . Minuetto (Mia Martini) tiziana99. 965 views 9 favorites . PDF. View and print .. Mia Martini - Minuetto.wav Peak level 98.9 % Extraction speed 6.8 X Track quality 100.0 % Test CRC 89696A18 Copy CRC 89696A18 Track not .. Gli accordi di Im Yours di Jason Mraz per chitarra, . SOL#m Open up your plans and then you're free. .. <- Download Minuetto - Mia Martini.. Romagna mia - World Traditional - Italian Traditional - Romagna. Free Sheet music with Guitar chords Download.. Here is a list of my piano arrangements sheet music, you can free download from the following links: PDF: . Mia MARTINI Almeno tu nell .. Mia Martini: "Boncompagni? Detestabile . Mia Martini songs. From Wikipedia, the free encyclopedia. . Vorrei lo spartito di Mia Martini "Minuetto" per pianoforte.. Mia Martini - Minuetto.wav Peak level 100.0 % Extraction speed 5.7 X Track quality 100.0 % Test CRC C0DAAE94 Copy CRC C0DAAE94 Accurately . 0fea0b1dc0
nautanki saala songs download mp3 freeDynamic Programming for Coding Interviews%3A A Bottom-Up approach to problem solvingdoctor who snowmen 1080p torrentSugar Ray-The Best Of Sugar Ray full album zipindustrial electronics pdf book free downloadtelecharger windev mobile 17 avec crackOfficial Price Guide to Collector Knives, 15th Edition downloads torrentAstute Phantasm v3.0.2 for Adobesolid edge v19 free download full versioninstmankinvestigatory projects in physics for class 12 pdf download


Revenir en haut
Publicité






MessagePosté le: Sam 17 Mar - 20:48 (2018)    Sujet du message: Publicité

PublicitéSupprimer les publicités ?
Revenir en haut
Montrer les messages depuis:   
Poster un nouveau sujet   Répondre au sujet    paintball camo 59 Index du Forum -> La communauté PBC59 -> Le club PBC59 Toutes les heures sont au format GMT + 1 Heure
Page 1 sur 1

 
Sauter vers:  

Index | Creer un forum | Forum gratuit d’entraide | Annuaire des forums gratuits | Signaler une violation | Conditions générales d'utilisation
Template lost-kingdom_Tolede created by larme d'ange
Powered by phpBB © 2001, 2005 phpBB Group
Traduction par : phpBB-fr.com